Робокоп / RoboCop (2014) BDRip-AVC от MediaClub

Робокоп / RoboCop (2014) BDRip-AVC от MediaClub

Робокоп / RoboCop
Страна: США, Columbia Pictures, Metro-Goldwyn-Mayer (MGM), Strike Entertainment
Жанр: Фантастика, боевик, криминал, ремейк
Год выпуска: 2014
Продолжительность: 01:57:30
Перевод: Дублированный
Режиссер: Жозе Падилья
В ролях: Юэль Киннаман, Гари Олдман, Майкл Китон, Эбби Корниш, Джей Барушель, Сэмюэл Л. Джексон, Айми Гарсиа, Дженнифер Или, Джеки Эрл Хейли, Майкл К. Уильямс
Описание:
2028 год. Международный конгломерат ОмниКорп лидирует в производстве робототехники. Благодаря разработкам компании Америка успешно побеждает в войнах по всему миру. Но теперь пришло время применить технологию на американской земле. Алекс Мерфи — любящий муж, отец и отличный полицейский, оберегающий порядок в Детройте, получает на службе смертельные ранения. Специалисты ОмниКорпа, используя новейшие разработки, сохраняют ему жизнь. Алекс возвращается на службу в родной город не только с новыми сверхспособностями, но и с проблемами, с которыми не сталкивался ни один живой человек.
Релиз: |
Качество видео: BDRip-AVC [BluRay.REMUX.DTS-HD.MA.5.1]
Формат видео: MKV
Видео: MPEG-4 AVC, 2050 Кбит/с, 1024x426, 23.976 кадр/с
Аудио#1: Русский (AC3, 6 ch, 384 Кбит/с) / Дублированный
Аудио#2: Английский (AC3, 6 ch, 448 Кбит/с)
Субтитры: Русские, английские
Навигация по главам: Присутствуют
x264---[Information] [09.05.2014 13:25:25] x264 [info]: ref P L0: 52.7% 9.8% 17.7% 5.8% 4.8% 3.0% 2.6% 1.3% 1.2% 0.9% 0.1% 0.0%
---[Information] [09.05.2014 13:25:25] x264 [info]: ref B L0: 73.3% 12.9% 5.7% 2.9% 2.0% 1.6% 1.0% 0.4% 0.2%
---[Information] [09.05.2014 13:25:25] x264 [info]: ref B L1: 92.1% 7.9%
---[Information] [09.05.2014 13:25:25] x264 [info]: kb/s:2049.25
MI General
Unique ID : 234758556771824980367061247842235318569 (0xB09CDA79A786E911963A3EE7AC8E0129)
Complete name : D:MY RIPSFilmMediaclubRoboCop.2014.x264.BDRip.AVC.MediaClub.mkv
Format : Matroska
Format version : Version 4 / Version 2
File size : 2.36 GiB
Duration : 1h 57mn
Overall bit rate : 2 880 Kbps
Movie name : Rip by Die_Roten [Mediaclub.tv]
Encoded date : UTC 2014-05-10 08:26:15
Writing application : mkvmerge v6.1.0 ('Old Devil') built on Mar 4 2013 09:10:42
Writing library : libebml v1.3.0 + libmatroska v1.4.0
Video
ID : 1
Format : AVC
Format/Info : Advanced Video Codec
Format profile :
Format settings, CABAC : Yes
Format settings, ReFrames : 10 frames
Codec ID : V_MPEG4/ISO/AVC
Duration : 1h 57mn
Bit rate : 2 050 Kbps
Width : 1 024 pixels
Height : 426 pixels
Display aspect ratio : 2.40:1
Frame rate mode : Constant
Frame rate : 23.976 fps
Color space : YUV
Chroma subsampling : 4:2:0
Bit depth : 8 bits
Scan type : Progressive
Bits/(Pixel*Frame) : 0.196
Stream size : 1.63 GiB (69%)
Title : RoboCop.2014.x264.BDRip.AVC.MediaClub[Rip.by.Die.Roten]
Writing library : x264 core 138 r2358 9e941d1
Encoding settings : cabac=1 / ref=10 / deblock=1:-3:-3 / analyse=0x3:0x113 / me=umh / subme=10 / psy=1 / psy_rd=1.00:0.10 / mixed_ref=1 / me_range=48 / chroma_me=1 / trellis=2 / 8x8dct=1 / cqm=0 / deadzone=21,11 / fast_pskip=0 / chroma_qp_offset=-3 / threads=6 / lookahead_threads=1 / sliced_threads=0 / nr=0 / decimate=0 / interlaced=0 / bluray_compat=0 / constrained_intra=0 / bframes=6 / b_pyramid=2 / b_adapt=2 / b_bias=0 / direct=3 / weightb=1 / open_gop=0 / weightp=2 / keyint=240 / keyint_min=22 / scenecut=40 / intra_refresh=0 / rc_lookahead=40 / rc=2pass / mbtree=0 / bitrate=2050 / ratetol=1.0 / qcomp=0.60 / qpmin=10 / qpmax=51 / qpstep=4 / cplxblur=20.0 / qblur=0.5 / vbv_maxrate=62500 / vbv_bufsize=78125 / nal_hrd=none / ip_ratio=1.40 / pb_ratio=1.30 / aq=1:1.00
Language : English
Default : Yes
Forced : No
Audio #1
ID : 2
Format : AC-3
Format/Info : Audio Coding 3
Mode extension : CM (complete main)
Format settings, Endianness : Big
Codec ID : A_AC3
Duration : 1h 57mn
Bit rate mode : Constant
Bit rate : 384 Kbps
Channel count : 6 channels
Channel positions : Front: L C R, Side: L R, LFE
Sampling rate : 48.0 KHz
Bit depth : 16 bits
Compression mode : Lossy
Stream size : 323 MiB (13%)
Title : RUS
Language : Russian
Default : Yes
Forced : Yes
Audio #2
ID : 3
Format : AC-3
Format/Info : Audio Coding 3
Mode extension : CM (complete main)
Format settings, Endianness : Big
Codec ID : A_AC3
Duration : 1h 57mn
Bit rate mode : Constant
Bit rate : 448 Kbps
Channel count : 6 channels
Channel positions : Front: L C R, Side: L R, LFE
Sampling rate : 48.0 KHz
Bit depth : 16 bits
Compression mode : Lossy
Stream size : 377 MiB (16%)
Title : ENG
Language : English
Default : No
Forced : No
Text #1
ID : 4
Format : UTF-8
Codec ID : S_TEXT/UTF8
Codec ID/Info : UTF-8 Plain Text
Title : RUS1
Language : Russian
Default : Yes
Forced : No
Text #2
ID : 5
Format : UTF-8
Codec ID : S_TEXT/UTF8
Codec ID/Info : UTF-8 Plain Text
Title : RUS2
Language : Russian
Default : No
Forced : No
Text #3
ID : 6
Format : UTF-8
Codec ID : S_TEXT/UTF8
Codec ID/Info : UTF-8 Plain Text
Title : ENG
Language : English
Default : No
Forced : No
Menu
00:00:00.000 : en:(01)00:00:00:000
00:04:33.898 : en:(02)00:04:33:898
00:08:51.739 : en:(03)00:08:51:739
00:14:33.914 : en:(04)00:14:33:914
00:17:01.603 : en:(05)00:17:01:603
00:19:27.040 : en:(06)00:19:27:040
00:21:52.936 : en:(07)00:21:52:936
00:26:13.571 : en:(08)00:26:13:571
00:30:47.971 : en:(09)00:30:47:971
00:32:48.675 : en:(10)00:32:48:675
00:36:12.378 : en:(11)00:36:12:378
00:39:06.969 : en:(12)00:39:06:969
00:43:03.497 : en:(13)00:43:03:497
00:45:40.654 : en:(14)00:45:40:654
00:52:10.377 : en:(15)00:52:10:377
00:57:21.187 : en:(16)00:57:21:187
01:01:23.888 : en:(17)01:01:23:888
01:02:59.901 : en:(18)01:02:59:901
01:06:05.920 : en:(19)01:06:05:920
01:10:30.475 : en:(20)01:10:30:475
01:13:26.527 : en:(21)01:13:26:527
01:18:24.866 : en:(22)01:18:24:866
01:21:56.202 : en:(23)01:21:56:202
01:26:04.993 : en:(24)01:26:04:993
01:28:06.906 : en:(25)01:28:06:906
01:32:02.975 : en:(26)01:32:02:975
01:35:52.955 : en:(27)01:35:52:955
01:38:30.654 : en:(28)01:38:30:654
01:41:30.751 : en:(29)01:41:30:751
01:43:44.635 : en:(30)01:43:44:635
01:46:41.561 : en:(31)01:46:41:561
01:50:12.689 : en:(32)01:50:12:689
01:57:28.958 : en:(33)01:57:28:958
Скриншоты
Скриншоты:

Скриншот Робокоп / RoboCop (2014) BDRip-AVC от MediaClubСкриншот Робокоп / RoboCop (2014) BDRip-AVC от MediaClubСкриншот Робокоп / RoboCop (2014) BDRip-AVC от MediaClubСкриншот Робокоп / RoboCop (2014) BDRip-AVC от MediaClub

Поделитесь с друзьями: