Замороженные солдаты / Ice Soldiers (2013) BDRip-AVC от HELLYWOOD

Замороженные солдаты / Ice Soldiers (2013) BDRip-AVC от HELLYWOOD

Замороженные солдаты / Ice Soldiers-- Год выпуска: 2013
Страна: Канада
Жанр: фантастика, боевик
Продолжительность: 01:35:00
Перевод: Профессиональный (многоголосый закадровый)
Оригинальная аудиодорожка: английский
Субтитры: русские, английские--Режиссер: Стурла Гуннарссон / Sturla Gunnarsson
В ролях: Доминик Пёрселл, Адам Бич, Майкл Айронсайд, Гэбриел Хоган, Бенц Антуан, Рауль Банеджа, Нику Бранзеа, Грег Стивен Браун--Описание: Ученый в снегах Канады обнаруживает три тела русских военных, с генетическими изменениями. Он приводит их в чувство и зря — он разморозил смертельную опасность для общества.--Релиз от: -- --Качество: BDRip-AVC (исходник: BDRemux)
Формат: MKV
Видео: х.264, 1032x430 (2,40:1), 23,976 fps, 1293 Кbps, 0.122 bit/pixel
Аудио #1: 48 kHz, AC3 Dolby Digital, 3/2 (L,C,R,l,r) + LFE ch, 384.00 kbps | RUS
Аудио #2: 48 kHz, AC3 Dolby Digital, 3/2 (L,C,R,l,r) + LFE ch, 448.00 kbps | ENG
-- MediaInfo: General
Unique ID : 194826465084405555898174257632176873652 (0x92923659B84BA578B50E6B5D8FF5A0B4)
Complete name : C:\Users\Downloads\Zamorozhennyie.Soldaty.2013.DUAL.BDRip.x264.-HELLYWOOD.mkv
Format : Matroska
Format version : Version 4 / Version 2
File size : 1.42 GiB
Duration : 1h 35mn
Overall bit rate : 2 126 Kbps
Movie name : HELLYWOOD - rip by potroks
Encoded date : UTC 2014-05-19 09:42:54
Writing application : mkvmerge v5.9.0 ('On The Loose') built on Dec 15 2012 16:39:58
Writing library : libebml v1.3.0 + libmatroska v1.4.0
Video
ID : 1
Format : AVC
Format/Info : Advanced Video Codec
Format profile :
Format settings, CABAC : Yes
Format settings, ReFrames : 10 frames
Codec ID : V_MPEG4/ISO/AVC
Duration : 1h 35mn
Bit rate : 1 293 Kbps
Width : 1 032 pixels
Height : 430 pixels
Display aspect ratio : 2.40:1
Frame rate mode : Constant
Frame rate : 23.976 fps
Color space : YUV
Chroma subsampling : 4:2:0
Bit depth : 8 bits
Scan type : Progressive
Bits/(Pixel*Frame) : 0.122
Stream size : 854 MiB (59%)
Title : Ice Soldiers
Writing library : x264 core 130 r2273 b3065e6
Encoding settings : cabac=1 / ref=10 / deblock=1:-2:-2 / analyse=0x3:0x133 / me=umh / subme=11 / psy=1 / psy_rd=1.04:0.00 / mixed_ref=1 / me_range=32 / chroma_me=1 / trellis=2 / 8x8dct=1 / cqm=0 / deadzone=21,11 / fast_pskip=0 / chroma_qp_offset=-2 / threads=6 / lookahead_threads=1 / sliced_threads=0 / nr=0 / decimate=0 / interlaced=0 / bluray_compat=0 / constrained_intra=0 / bframes=11 / b_pyramid=2 / b_adapt=2 / b_bias=0 / direct=3 / weightb=1 / open_gop=0 / weightp=2 / keyint=250 / keyint_min=23 / scenecut=40 / intra_refresh=0 / rc_lookahead=60 / rc=2pass / mbtree=0 / bitrate=1293 / ratetol=1.0 / qcomp=0.70 / qpmin=0 / qpmax=69 / qpstep=4 / cplxblur=20.0 / qblur=0.5 / vbv_maxrate=20000 / vbv_bufsize=20000 / nal_hrd=none / ip_ratio=1.35 / pb_ratio=1.25 / aq=1:0.80
Language : English
Default : Yes
Forced : No
Audio #1
ID : 2
Format : AC-3
Format/Info : Audio Coding 3
Mode extension : CM (complete main)
Format settings, Endianness : Big
Codec ID : A_AC3
Duration : 1h 35mn
Bit rate mode : Constant
Bit rate : 384 Kbps
Channel(s) : 6 channels
Channel positions : Front: L C R, Side: L R, LFE
Sampling rate : 48.0 KHz
Bit depth : 16 bits
Compression mode : Lossy
Stream size : 262 MiB (18%)
Title : MVO | DD 5.1 @ 384 kbps - R5
Language : Russian
Default : Yes
Forced : Yes
Audio #2
ID : 3
Format : AC-3
Format/Info : Audio Coding 3
Mode extension : CM (complete main)
Format settings, Endianness : Big
Codec ID : A_AC3
Duration : 1h 35mn
Bit rate mode : Constant
Bit rate : 448 Kbps
Channel(s) : 6 channels
Channel positions : Front: L C R, Side: L R, LFE
Sampling rate : 48.0 KHz
Bit depth : 16 bits
Compression mode : Lossy
Stream size : 306 MiB (21%)
Title : Original | DD 5.1 @ 448 kbps
Language : Finnish
Default : No
Forced : No
Text #1
ID : 4
Format : UTF-8
Codec ID : S_TEXT/UTF8
Codec ID/Info : UTF-8 Plain Text
Title : Janetta
Language : Russian
Default : No
Forced : No
Text #2
ID : 5
Format : UTF-8
Codec ID : S_TEXT/UTF8
Codec ID/Info : UTF-8 Plain Text
Title : kon201
Language : Russian
Default : No
Forced : No
Text #3
ID : 6
Format : UTF-8
Codec ID : S_TEXT/UTF8
Codec ID/Info : UTF-8 Plain Text
Language : English
Default : No
Forced : No
Text #4
ID : 7
Format : UTF-8
Codec ID : S_TEXT/UTF8
Codec ID/Info : UTF-8 Plain Text
Title : SDH
Language : English
Default : No
Forced : No
Menu
00:00:00.000 : en:00:00:00.000
00:05:13.063 : en:00:05:13.063
00:11:34.360 : en:00:11:34.360
00:17:37.682 : en:00:17:37.682
00:22:23.968 : en:00:22:23.968
00:28:18.447 : en:00:28:18.447
00:32:59.811 : en:00:32:59.811
00:37:26.828 : en:00:37:26.828
00:43:40.827 : en:00:43:40.827
00:51:37.303 : en:00:51:37.303
00:56:01.400 : en:00:56:01.400
01:00:32.087 : en:01:00:32.087
01:06:59.849 : en:01:06:59.849
01:12:31.264 : en:01:12:31.264
01:17:50.583 : en:01:17:50.583
01:22:04.128 : en:01:22:04.128 Скриншоты:
Скриншоты:

Пока нет.

Поделитесь с друзьями: