Под землёй / Beneath (2013) WEB-DLRip

Под землёй / Beneath (2013) WEB-DLRip

Под землёй / Beneath
Страна: США
Жанр: ужасы
Год выпуска: 2013
Продолжительность: 01:29:35
Перевод: Одноголосый закадровый datynet
Cубтитры: нет
Оригинальная аудиодорожка: английский
Режиссер: Бен Кетаи / Ben Ketai
В ролях: Брент Бриско, Курт Касерес, Эрик Этебари, Джефф Фэйи, Лорен Горес, Джои Керн, Джейсон Масек, Келли Нунан, Рене Ривера, Дэвид Шакелфорд
Описание: В основе фильма лежат реальные события. После катастрофического обвала команда шахтеров попадает в ловушку на глубине почти в 200 метров. Воздух, которым они дышат, становится все более токсичным, а времени на то, чтобы спастись, все меньше. Они медленно погружаются в пучину безумия и начинают нападать друг на друга…
Сэмпл: http://multi-up.com/983894
Качество видео: WEB-DLRip
Формат видео: AVI
Видео: Xvid 720x304 23.98fps 1 836 Kbps
Аудио: MPEG Audio Layer 3 44100Hz stereo 192kbps rus
Аудио 2: MPEG Audio Layer 3 48000Hz stereo 128kbps eng MediaInfo Format : AVI
Format/Info : Audio Video Interleave
File size : 1.36 GiB
Duration : 1h 29mn
Overall bit rate : 2 171 Kbps
Writing application : VirtualDubMod 1.5.10.3 | www.virtualdub-fr.org || (build 2550/release)
Writing library : VirtualDubMod build 2550/release
Video
ID : 0
Format : MPEG-4 Visual
Format profile : Advanced Simple@L5
Format settings, BVOP : Yes
Format settings, QPel : No
Format settings, GMC : No warppoints
Format settings, Matrix : Default (MPEG)
Muxing mode : Packed bitstream
Codec ID : XVID
Codec ID/Hint : XviD
Duration : 1h 29mn
Bit rate : 1 836 Kbps
Width : 720 pixels
Height : 304 pixels
Display aspect ratio : 2.35:1
Frame rate : 23.976 fps
Resolution : 8 bits
Colorimetry : 4:2:0
Scan type : Progressive
Bits/(Pixel*Frame) : 0.350
Stream size : 1.15 GiB (85%)
Writing library : XviD 1.2.1 (UTC 2008-12-04)
Audio #1
ID : 1
Format : MPEG Audio
Format version : Version 1
Format profile : Layer 3
Codec ID : 55
Codec ID/Hint : MP3
Duration : 1h 29mn
Bit rate mode : Constant
Bit rate : 192 Kbps
Channel(s) : 2 channels
Sampling rate : 44.1 KHz
Stream size : 123 MiB (9%)
Alignment : Split accross interleaves
Interleave, duration : 42 ms (1.00 video frame)
Interleave, preload duration : 500 ms
Audio #2
ID : 2
Format : MPEG Audio
Format version : Version 1
Format profile : Layer 3
Codec ID : 55
Codec ID/Hint : MP3
Duration : 1h 29mn
Bit rate mode : Constant
Bit rate : 128 Kbps
Channel(s) : 2 channels
Sampling rate : 48.0 KHz
Stream size : 82.0 MiB (6%)
Alignment : Aligned on interleaves
Interleave, duration : 42 ms (1.00 video frame)
Interleave, preload duration : 504 ms
Writing library : LAME3.99r
Encoding settings : -m s -V 4 -q 2 -lowpass 17 -b 128 Скриншот c названием фильма Скриншоты
Скриншоты:

Скриншот Под землёй / Beneath (2013) WEB-DLRipСкриншот Под землёй / Beneath (2013) WEB-DLRipСкриншот Под землёй / Beneath (2013) WEB-DLRipСкриншот Под землёй / Beneath (2013) WEB-DLRipСкриншот Под землёй / Beneath (2013) WEB-DLRipСкриншот Под землёй / Beneath (2013) WEB-DLRip

Поделитесь с друзьями: