Китайская головоломка / Casse-tête chinois (2013) HDRip

Китайская головоломка / Casse-tête chinois (2013) HDRip

Китайская головоломка / Casse-tête chinois
-
7.426 / 10 7.20 / 10- Год выпуска: 2013
Страна: Франция
Жанр: Драма, мелодрама, комедия
Продолжительность: 01:57:15
Перевод: Дублированный (Line)
Оригинальная аудиодорожка: Есть
Cубтитры: Английские
Режиссёр: Седрик Клапиш
Сценарий: Седрик Клапиш
Продюсер: Седрик Клапиш, Бруно Леви, Рафаэль Бенолье
Оператор: Наташа Брайер
Композитор: Кристоф Минк
Художник: Рошель Берлинер, Мари Шеминаль, Маттео Де Космо
Монтаж: Анна-Софи Бьён
В ролях: Ромен Дюрис, Одри Тоту, Сесиль Де Франс, Келли Райлли, Сандрин Холт, Флоре Бонавентура, Йохен Хаэгеле, Бенуа Жако, Пабло Мюнье-Жакоб, Марго Мансар
Бюджет: €17 290 000
Сборы в мире: $14 000 000
Сборы в России: $155 437
Мировая премьера: 23 августа 2013
Премьера (РФ): 3 апреля 2014, «Cinema Prestige»
Релиз на DVD: 13 мая 2014, «CD Land»
Описание: Ксавье, покуролесивший в молодости в поисках идеальной женщины, в тридцать с копейками, казалось, успокоился: теперь он женат на англичанке Венди, с которой учился когда-то в барселонском университете, у них двое детей. Но вдруг Венди решила, взяв детей, уехать в Нью-Йорк. Через несколько месяцев и Ксавье последовал за семьей.-Качество исходника: BDRip 1080p
Качество: HDRip
Тип: SD (576p)
Контейнер: M4V
Видео: H.264, 1024x560, 1.85:1, 2 200 Kbps, 23.976 fps
Аудио 1: Русский/Дублированный (Line), AAC / 2.0 / 110 Kbps / 48.0 KHz
Аудио 2: Французский/Оригинальная дорожка , AAC / 2.0 / 124 Kbps / 48.0 KHz
Субтитры: Английские полные
-
iTunes Meta Tags Код: Media Type: Movie
Sort Name: Casse-tête chinois
XID: Apple:vendor_id:2013-627363
Content ID: 627363
ScreenWriters: Седрик Клапиш
Producers: Седрик Клапиш, Бруно Леви, Рафаэль Бенолье
Director: Седрик Клапиш
Cast: Ромен Дюрис, Одри Тоту, Сесиль Де Франс, Келли Райлли, Сандрин Холт, Флоре Бонавентура, Йохен Хаэгеле, Бенуа Жако, Пабло Мюнье-Жакоб, Марго Мансар
Rating: R
Long Description: Ксавье, покуролесивший в молодости в поисках идеальной женщины, в тридцать с копейками, казалось, успокоился: теперь он женат на англичанке Венди, с которой учился когда-то в барселонском университете, у них двое детей. Но вдруг Венди решила, взяв детей, уехать в Нью-Йорк. Через несколько месяцев и Ксавье последовал за семьей.
Description: Ксавье, покуролесивший в молодости в поисках идеальной женщины, в тридцать с копейками, казалось, успокоился: теперь он женат на англичанке Венди.
Release Date: 2013-08-23T08:00:00Z
Genre: Drama
Artist: Cédric Klapisch
Name: Casse-tête chinois MediaInfo Код: General
Complete name                            : C:\\Handbrake\\Kitaiskay.golovolomka.(SD).(pk).m4v
Format                                   : MPEG-4
Codec ID                                 : M4V
File size                                : 2.00 GiB
Duration                                 : 1h 57mn
Overall bit rate mode                    : Variable
Overall bit rate                         : 2 439 Kbps
Movie name                               : Casse-tête chinois
Performer                                : Cédric Klapisch
Genre                                    : Drama
ContentType                              : Short Film
Description                              : Ксавье, покуролесивший в молодости в поисках идеальной женщины, в тридцать с копейками, казалось, успокоился: теперь он женат на англичанке Венди.
Recorded date                            : UTC 2013-08-23 08:00:00
Encoded date                             : UTC 2014-05-08 08:55:18
Tagged date                              : UTC 2014-05-08 08:56:22
Writing application                      : MkvToMp4 [www.mkvtomp4.ru] version 0.222
Service name                             : AOL
Cover                                    : Yes
Title/Sort                               : Casse-tête chinois
LongDescription                          : Ксавье, покуролесивший в молодости в поисках идеальной женщины, в тридцать с копейками, казалось, успокоился: теперь он женат на англичанке Венди, с которой учился когда-то в барселонском университете, у них двое детей. Но вдруг Венди решила, взяв детей, уехать в Нью-Йорк. Через несколько месяцев и Ксавье последовал за семьей.
AppleStoreAccountType                    : AOL
AppleStoreCountry                        : Unknown Country
AppleStoreCatalogID                      : 627363
Vendor                                   : Apple:vendor_id:2013-627363
ContentRating                            : mpaa|R|400|
iTunMOVI                                 : <?xml version=\"1.0\" encoding=\"UTF-8\"?> / <!DOCTYPE plist PUBLIC \"-//Apple//DTD PLIST 1.0//EN\" \"http://www.apple.com/DTDs/PropertyList-1.0.dtd\"> / <plist version=\"1.0\"> /  <dict> /   <key>cast</key> /   <array> /    <dict> /     <key>name</key> /     <string>Ромен Дюрис</string> /    </dict> /    <dict> /     <key>name</key> /     <string>Одри Тоту</string> /    </dict> /    <dict> /     <key>name</key> /     <string>Сесиль Де Франс</string> /    </dict> /    <dict> /     <key>name</key> /     <string>Келли Райлли</string> /    </dict> /    <dict> /     <key>name</key> /     <string>Сандрин Холт</string> /    </dict> /    <dict> /     <key>name</key> /     <string>Флоре Бонавентура</string> /    </dict> /    <dict> /     <key>name</key> /     <string>Йохен Хаэгеле</string> /    </dict> /    <dict> /     <key>name</key> /     <string>Бенуа Жако</string> /    </dict> /    <dict> /     <key>name</key> /     <string>Пабло Мюнье-Жакоб</string> /    </dict> /    <dict> /     <key>name</key> /     <string>Марго Мансар</string> /    </dict> /   </array> /   <key>directors</key> /   <array> /    <dict> /     <key>name</key> /     <string>Седрик Клапиш</string> /    </dict> /   </array> /   <key>producers</key> /   <array> /    <dict> /     <key>name</key> /     <string>Седрик Клапиш</string> /    </dict> /    <dict> /     <key>name</key> /     <string>Бруно Леви</string> /    </dict> /    <dict> /     <key>name</key> /     <string>Рафаэль Бенолье</string> /    </dict> /   </array> /   <key>screenwriters</key> /   <array> /    <dict> /     <key>name</key> /     <string>Седрик Клапиш</string> /    </dict> /   </array> /  </dict> / </plist>
Video
ID                                       : 1
Format                                   : AVC
Format/Info                              : Advanced Video Codec
Format profile                           :
Format settings, CABAC                   : Yes
Format settings, ReFrames                : 9 frames
Codec ID                                 : avc1
Codec ID/Info                            : Advanced Video Coding
Duration                                 : 1h 57mn
Bit rate                                 : 2 200 Kbps
Maximum bit rate                         : 11.4 Mbps
Width                                    : 1 024 pixels
Height                                   : 560 pixels
Display aspect ratio                     : 1.85:1
Frame rate mode                          : Variable
Frame rate                               : 23.976 fps
Minimum frame rate                       : 23.452 fps
Maximum frame rate                       : 24.390 fps
Color space                              : YUV
Chroma subsampling                       : 4:2:0
Bit depth                                : 8 bits
Scan type                                : Progressive
Bits/(Pixel*Frame)                       : 0.160
Stream size                              : 1.80 GiB (90%)
Writing library                          : x264 core 130 r2273 b3065e6
Encoding settings                        : cabac=1 / ref=9 / deblock=1:0:0 / analyse=0x3:0x113 / me=umh / subme=9 / psy=1 / psy_rd=1.00:0.00 / mixed_ref=1 / me_range=32 / chroma_me=1 / trellis=1 / 8x8dct=1 / cqm=0 / deadzone=21,11 / fast_pskip=1 / chroma_qp_offset=-2 / threads=12 / lookahead_threads=1 / sliced_threads=0 / nr=0 / decimate=1 / interlaced=0 / bluray_compat=0 / constrained_intra=0 / bframes=6 / b_pyramid=2 / b_adapt=2 / b_bias=0 / direct=1 / weightb=1 / open_gop=0 / weightp=2 / keyint=240 / keyint_min=24 / scenecut=40 / intra_refresh=0 / rc_lookahead=40 / rc=2pass / mbtree=1 / bitrate=2200 / ratetol=1.0 / qcomp=0.60 / qpmin=0 / qpmax=69 / qpstep=4 / cplxblur=20.0 / qblur=0.5 / ip_ratio=1.40 / aq=1:1.00
Language                                 : English
Encoded date                             : UTC 2014-05-08 08:55:18
Tagged date                              : UTC 2014-05-08 08:55:57
Color primaries                          : BT.709
Transfer characteristics                 : BT.709
Matrix coefficients                      : BT.709
Audio #1
ID                                       : 2
Format                                   : AAC
Format/Info                              : Advanced Audio Codec
Format profile                           : LC
Codec ID                                 : 40
Duration                                 : 1h 57mn
Bit rate mode                            : Variable
Bit rate                                 : 110 Kbps
Maximum bit rate                         : 211 Kbps
Channel(s)                               : 2 channels
Channel positions                        : Front: L R
Sampling rate                            : 48.0 KHz
Compression mode                         : Lossy
Stream size                              : 92.2 MiB (5%)
Language                                 : Russian
Encoded date                             : UTC 2014-05-08 08:55:44
Tagged date                              : UTC 2014-05-08 08:55:57
Audio #2
ID                                       : 3
Format                                   : AAC
Format/Info                              : Advanced Audio Codec
Format profile                           : LC
Codec ID                                 : 40
Duration                                 : 1h 57mn
Bit rate mode                            : Variable
Bit rate                                 : 124 Kbps
Maximum bit rate                         : 190 Kbps
Channel(s)                               : 2 channels
Channel positions                        : Front: L R
Sampling rate                            : 48.0 KHz
Compression mode                         : Lossy
Stream size                              : 104 MiB (5%)
Language                                 : French
Encoded date                             : UTC 2014-05-08 08:55:56
Tagged date                              : UTC 2014-05-08 08:55:57
Text
ID                                       : 4
Format                                   : Timed Text
Muxing mode                              : sbtl
Codec ID                                 : tx3g
Duration                                 : 1h 57mn
Bit rate mode                            : Variable
Bit rate                                 : 40 bps
Stream size                              : 34.0 KiB (0%)
Language                                 : English
Encoded date                             : UTC 2014-05-08 08:55:57
Tagged date                              : UTC 2014-05-08 08:55:57
Menu
ID                                       : 5
Codec ID                                 : text
Duration                                 : 1h 57mn
Encoded date                             : UTC 2014-05-08 08:56:18
Tagged date                              : UTC 2014-05-08 08:56:18
Bit rate mode                            : VBR x264 лог Код: x264 [info]: frame I:1356  Avg QP:15.08  size:108958  PSNR Mean Y:47.54 U:50.07 V:51.50 Avg:48.35 Global:48.01
x264 [info]: frame P:39641 Avg QP:17.54  size: 25415  PSNR Mean Y:45.69 U:49.21 V:49.94 Avg:46.62 Global:46.19
x264 [info]: frame B:127699 Avg QP:20.28  size:  6093  PSNR Mean Y:44.74 U:48.91 V:49.74 Avg:45.77 Global:45.38
x264 [info]: consecutive B-frames:  2.3%  3.6%  6.4% 37.5% 14.6% 29.7%  5.9%
x264 [info]: mb I  I16..4: 10.5% 66.8% 22.7%
x264 [info]: mb P  I16..4:  1.4%  6.2%  1.8%  P16..4: 37.3% 26.2% 16.8%  0.0%  0.0%    skip:10.3%
x264 [info]: mb B  I16..4:  0.1%  0.6%  0.2%  B16..8: 41.4%  8.6%  2.3%  direct: 3.0%  skip:43.9%  L0:44.3% L1:48.2% BI: 7.5%
x264 [info]: 8x8 transform intra:66.7% inter:68.9%
x264 [info]: coded y,uvDC,uvAC intra: 84.8% 83.1% 57.9% inter: 23.0% 22.2% 2.7%
x264 [info]: i16 v,h,dc,p: 45% 19%  7% 29%
x264 [info]: i8 v,h,dc,ddl,ddr,vr,hd,vl,hu: 11%  8%  4% 10% 14% 15% 13% 13% 11%
x264 [info]: i4 v,h,dc,ddl,ddr,vr,hd,vl,hu: 12%  9%  3%  9% 14% 15% 13% 12% 12%
x264 [info]: i8c dc,h,v,p: 39% 23% 22% 16%
x264 [info]: Weighted P-Frames: Y:1.2% UV:0.5%
x264 [info]: ref P L0: 49.1% 10.6% 17.6%  5.9%  5.4%  3.7%  3.6%  1.9%  2.0%  0.2%  0.0%
x264 [info]: ref B L0: 72.4% 12.5%  6.3%  3.0%  2.3%  2.0%  1.1%  0.4%
x264 [info]: ref B L1: 91.5%  8.5%
x264 [info]: SSIM Mean Y:0.9815669 (17.344db)
x264 [info]: PSNR Mean Y:44.984 U:48.985 V:49.799 Avg:45.994 Global:45.578 kb/s:2198.11 Скриншоты -
Релиз подготовлен для просмотра на Apple TV, iPad, iPhone, iPod Touch.
Для просмотра данного релиза на компьютере с ОС Windows рекомендуется использовать VLC media player
Скриншоты:

Скриншот Китайская головоломка / Casse-tête chinois (2013) HDRipСкриншот Китайская головоломка / Casse-tête chinois (2013) HDRipСкриншот Китайская головоломка / Casse-tête chinois (2013) HDRipСкриншот Китайская головоломка / Casse-tête chinois (2013) HDRipСкриншот Китайская головоломка / Casse-tête chinois (2013) HDRipСкриншот Китайская головоломка / Casse-tête chinois (2013) HDRipСкриншот Китайская головоломка / Casse-tête chinois (2013) HDRipСкриншот Китайская головоломка / Casse-tête chinois (2013) HDRip

Поделитесь с друзьями: