2 дня (2011) BDRip 1080p

2 дня (2011) BDRip 1080p

Новые Мстители: Герои завтрашнего дня / Next Avengers: Heroes of TomorrowГод выпуска: 2008
Страна: США
Слоган: «The children of heroes past are our only hope for the future!»
Жанр: мультфильм, фантастика, боевик, семейный
Продолжительность: 01:18:02
Перевод: Профессиональный (многоголосый, закадровый)
Режиссер: Джей Олива / Jay Oliva, Гари Хартл / Gary Hartle
Сценарий: Кристофер Йост / Christopher Yost, Грег Джонсон / Greg Johnson, Крэйг Кайл / Craig Kyle
Продюсер: Гари Хартл / Gary Hartle, Крэйг Кайл / Craig Kyle, Кэрри Вассенаар / Carrie Wassenaar
Композитор: Гай Мишельмор / Guy Michelmore
В ролях: Ной Кроуфорд (James Rogers, озвучка), Бренна О’Брайэн (Torunn, озвучка), Эйдан Драммонд (Pym, озвучка), Демпси Паппион (Azari, озвучка), Адриан Петрив (Hawkeye, озвучка), Том Кэйн (Tony Stark / Iron Man / Ultron, озвучка), Фред Татаскьор (Hulk / дополнительные голоса, озвучка), Шоун МакДональд (Vision / дополнительные голоса, озвучка), Майкл Адамуэйт (Thor / дополнительные голоса, озвучка), Кен Крамер (Bruce Banner, озвучка), Николь Оливер (Betty Ross / дополнительные голоса, озвучка)-Мировая премьера: 2 сентября 2008
Релиз на DVD: 26 февраля 2009, «Мьюзик-Трейд»
Релиз на Blu-ray: 26 мая 2011, «Флагман-Трейд»-Описание: Всякий раз, когда силы зла угрожали человечеству, самые могущественные герои Земли «Мстители» останавливали их. Пришло время молодого поколения. Теперь новые герои будут вершить правосудие и они должны закончить борьбу, которую начали их родители.
MPAA: PG - Рекомендуется присутствие родителей-Качество: BDRip 720p
Формат: Matroska
Видео: 1920x1080 at 23.976 fps, , 2pass, ~3806 kbps avg
Аудио №1: Russian: 48 kHz/16-bit, DTS, 3/2 (L,C,R,l,r) + LFE ch, ~1536 kbps avg |Многоголосый закадровый|
Аудио №2: English: 48 kHz/16-bit, DTS, 3/2 (L,C,R,l,r) + LFE ch, ~1536 kbps avg
Субтитры: English- MI Общее
Уникальный идентификатор : 203621316611488270934389863005590249840 (0x99300A024F98DB82A52848EDAADDE170)
Полное имя : C:\Users\1\Desktop\Фильмы\Раздачи\Next. Avengers. Heroes. of. Tomorrow.2008.1080p.BluRay.Rus.Eng.HDCLUB.mkv
Формат : Matroska
Размер файла : 3,72 Гбайт
Продолжительность : 1 ч. 18 м.
Общий поток : 6828 Кбит/сек
Название фильма : Next Avengers Heroes of Tomorrow (2008) - Release for HDCLUB
Дата кодирования : UTC 2011-12-22 18:10:10
Программа кодирования : mkvmerge v4.9.1 ('Ich will') сборка от Jul 11 2011 23:53:15
Библиотека кодирования : libebml v1.2.1 + libmatroska v1.1.1
Видео
Идентификатор : 1
Формат : AVC
Формат/Информация : Advanced Video Codec
Профиль формата :
Параметр CABAC формата : Да
Параметр ReFrames формата : 4 кадры
Идентификатор кодека : V_MPEG4/ISO/AVC
Продолжительность : 1 ч. 18 м.
Битрейт : 3806 Кбит/сек
Ширина : 1920 пикс.
Высота : 1080 пикс.
Соотношение сторон : 16:9
Частота кадров : 23,976 кадр/сек
Цветовое пространство : YUV
Подвыборка цветности : 4:2:0
Битовая глубина : 8 бит
Тип развёртки : Прогрессивная
Бит/(Пиксели*Кадры) : 0.077
Размер потока : 2,00 Гбайт (54%)
Заголовок : Release for HDCLUB
Библиотека кодирования : x264 core 115 r1995 c1e60b9
Настройки программы : cabac=1 / ref=4 / deblock=1:-3:-3 / analyse=0x3:0x133 / me=umh / subme=9 / psy=1 / psy_rd=1.00:0.00 / mixed_ref=1 / me_range=32 / chroma_me=1 / trellis=2 / 8x8dct=1 / cqm=0 / deadzone=21,11 / fast_pskip=1 / chroma_qp_offset=-2 / threads=3 / sliced_threads=0 / nr=0 / decimate=1 / interlaced=0 / bluray_compat=0 / constrained_intra=0 / bframes=6 / b_pyramid=2 / b_adapt=1 / b_bias=0 / direct=3 / weightb=1 / open_gop=0 / weightp=2 / keyint=250 / keyint_min=23 / scenecut=40 / intra_refresh=0 / rc_lookahead=60 / rc=2pass / mbtree=1 / bitrate=3806 / ratetol=1.0 / qcomp=0.60 / qpmin=10 / qpmax=51 / qpstep=4 / cplxblur=20.0 / qblur=0.5 / ip_ratio=1.40 / aq=1:1.00
Язык : English
Основные цвета : BT.709-5, BT.1361, IEC 61966-2-4, SMPTE RP177
Характеристики трансфера : BT.709-5, BT.1361
Коэффициенты матрицы : BT.709-5, BT.1361, IEC 61966-2-4 709, SMPTE RP177
Аудио #1
Идентификатор : 2
Формат : DTS
Формат/Информация : Digital Theater Systems
Идентификатор кодека : A_DTS
Продолжительность : 1 ч. 18 м.
Вид битрейта : Постоянный
Битрейт : 1510 Кбит/сек
Канал(ы) : 6 канала(ов)
Расположение каналов : Front: L C R, Side: L R, LFE
Частота : 48,0 КГц
Битовая глубина : 16 бит
Метод сжатия : С потерями
Размер потока : 843 Мбайт (22%)
Заголовок : (DTS 5.1,1536 kbps,48 kHz,Mnogogolosyj zakadrovyj )
Язык : Russian
Аудио #2
Идентификатор : 3
Формат : DTS
Формат/Информация : Digital Theater Systems
Идентификатор кодека : A_DTS
Продолжительность : 1 ч. 18 м.
Вид битрейта : Постоянный
Битрейт : 1510 Кбит/сек
Канал(ы) : 6 канала(ов)
Расположение каналов : Front: L C R, Side: L R, LFE
Частота : 48,0 КГц
Битовая глубина : 24 бит
Метод сжатия : С потерями
Размер потока : 843 Мбайт (22%)
Заголовок : (DTS 5.1,1536 kbps,48 kHz,Original )
Язык : English
Текст
Идентификатор : 4
Формат : UTF-8
Идентификатор кодека : S_TEXT/UTF8
Идентификатор кодека/Информация : UTF-8 Plain Text
Заголовок : SRT
Язык : English

Скриншоты:

Пока нет.

Поделитесь с друзьями: